Krrish 3 (2013) mkv 700MB

အိႏၵိယရုပ္ရွင္ပါ ဇတ္လမ္းပံုစံေလးကေတာ့ 
စြမ္းအားရွင္လူဆိုးေတြကုိ နုိပ္နွင္းရတ့ဲဇတ္လမ္းေလးပါ 
မင္းသားရဲ့ ဇတ္ေကာင္ကေတာ့ စူပါမင္းပါ ထုိင္ငိုရေလာက္တယ္ :)
ၾကည့္ခ်င္တယ္ဆိုရင္ ေအာက္ကလိပ္စာမွာရယူုနုိင္ပါတယ္ 

Format : Matroska
Format version : Version 2
File size : 696 MiB
Duration : 2h 21mn
Overall bit rate mode : Variable
Overall bit rate : 688 Kbps
Encoded date : UTC 2013-11-01 14:29:35
Writing library : libebml v1.3.0 + libmatroska v1.4.0

Video
ID : 1
Format : AVC
Format/Info : Advanced Video Codec
Format profile : High@L2.1
Format settings, CABAC : Yes
Format settings, ReFrames : 4 frames
Codec ID : V_MPEG4/ISO/AVC
Duration : 2h 21mn
Bit rate : 563 Kbps
Width : 600 pixels
Height : 276 pixels
Display aspect ratio : 2.2:1
Frame rate mode : Constant
Frame rate : 25.000 fps
Color space : YUV
Chroma subsampling : 4:2:0
Bit depth : 8 bits
Scan type : Progressive
Bits/(Pixel*Frame) : 0.136
Stream size : 552 MiB (79%)
Writing library : x264 core 133 r2334 a3ac64b
Language : English
Default : Yes
Forced : No

Audio
ID : 2
Format : MPEG Audio
Format version : Version 1
Format profile : Layer 3
Mode : Joint stereo
Mode extension : MS Stereo
Codec ID : A_MPEG/L3
Codec ID/Hint : MP3
Duration : 2h 17mn
Bit rate mode : Variable
Bit rate : 128 Kbps
Channel(s) : 2 channels
Sampling rate : 48.0 KHz
Compression mode : Lossy
Stream size : 126 MiB (18%)
Writing library : LAME3.99r
Encoding settings : -m j -V 4 -q 2 -lowpass 17 --abr 128
Default : Yes
Forced : No 

0 comments "Krrish 3 (2013) mkv 700MB", Baca atau Masukkan Komentar

Post a Comment

လာေရာက္လည္ပတ္တဲ့အတြက္ ေက်းဇူးပါ ကၽြန္ေတာ္ကုိျပန္ျပီး ကူညီတဲ့အေနနဲ့ ေဘးမွာတင္ထားတဲ့ ေၾကာ္ျငာေလးေတြကုိ ကလစ္နွိပ္ေပးနုိင္ပါတယ္ thanks :D

Note: Only a member of this blog may post a comment.

Related Posts Plugin for WordPress, Blogger...